Watch Movie | Hajime no Ippo | ↳ Pokec o mobilních zařízeních

Vishwaroopam (2013) Hindi dubbed 720p AVC AC3 ESub[MMRHD]

seeders: 1
leechers: 0
updated:
Added by MMRHD in Other


strongly advises you to use NordVPN while downloading torrents.
NordVPN is the safest VPN on the market, and the fastest VPN as well.
No IP Log is saved using NordVPN, avoid other VPN providers and choose the safest one.
Click here and buy NordVPN it's on rebates today!
We were able to verify your IP: 188.68.3.176 and country: Czech Republic.
If we can do that, others can too, protect your privacy with NordVPN.
is trying the best for you!


Description

Vishwaroopam (2013) Hindi dubbed 720p AVC AC3 ESub[MMRHD]  

 


Quote:http://www.imdb.com/title/tt2199711/ 
Movie Name: Vishwaroopam (2013)
Genres:  Action, Thriller
Director:  Kamal Haasan
Writers:  H. Banerjee (Subtitles), Kamal Haasan
Stars:  Pooja Kumar, Miles Anderson, Kamal Haasan
Language: Hindi
Subtitle: English (Softcoded)
Encoder: MMRHD 
 


 

 

 

 


General  
Format : Matroska
File size : 596 MiB
Duration : 2 h 28 min
Overall bit rate : 560 kb/s
Movie name : [MMRHD] Vishwaroopam (2013) Hindi dubbed 720p AVC AC3 ESub 


Video  
ID : 1
Format : AVC
Duration : 2 h 28 min
Bit rate : 500 kb/s
Width : 1 280 pixels
Height : 544 pixels
Stream size : 526 MiB (88%) 


Audio  
ID : 2
Format : AC-3
Duration : 2 h 28 min
Bit rate : 64.0 kb/s
Channel(s) : 2 channels
Channel positions : Front: L R
Sampling rate : 44.1 kHz
Stream size : 68.1 MiB (11%)
Language : Hindi 


Text  
ID : 3
Format : UTF-8
Duration : 2 h 24 min
Stream size : 41.2 KiB (0%)
Language : English
Default : Yes
Forced : No 


 



Vishwaroopam 2 (2018) Tamil Pre DVDRip - 720p - AVC - MP3 - 500MB - Original Audio [MMRHD] 

Sharing Widget


Download torrent
Size: 597.2 MB
seeders:1
leechers:0
Vishwaroopam (2013) Hindi dubbed 720p AVC AC3 ESub[MMRHD] - (626209587 Bytes)



To share this torrent use the code below and insert it into comments, status messages, forum posts or your signature.

Torrent: Vishwaroopam (2013) Hindi dubbed 720p AVC AC3 ESub[MMRHD]

Trackers

tracker name
udp://tracker.openbittorrent.com:80/announce
udp://tracker.opentrackr.org:1337/announce
udp://inferno.demonoid.pw:3391/announce
udp://tracker.coppersurfer.tk:6969/announce
udp://tracker.leechers-paradise.org:6969/announce
udp://tracker.zer0day.to:1337/announce
http://tracker.opentrackr.org:1337/announce
udp://p4p.arenabg.com:1337/announce
http://p4p.arenabg.com:1337/announce
udp://9.rarbg.com:2710/announce
http://explodie.org:6969/announce
udp://explodie.org:6969/announce
http://tracker.dler.org:6969/announce
udp://tracker.internetwarriors.net:1337/announce
udp://tracker.zer0day.to:1337/announce
udp://tracker.leechers-paradise.org:6969/announce
udp://coppersurfer.tk:6969/announce
µTorrent compatible trackers list

Locations

name
KickassTorrents
Torrent hash: FB44685DE4745A004975CB3DF73E8D514C8CB9C5

strongly advises you to use NordVPN while downloading torrents.
NordVPN is the safest VPN on the market, and the fastest VPN as well.
No IP Log is saved using NordVPN, avoid other VPN providers and choose the safest one.
Click here and buy NordVPN it's on rebates today!
We were able to verify your IP: 188.68.3.176 and country: Czech Republic.
If we can do that, others can too, protect your privacy with NordVPN.
is trying the best for you!

All Comments

*comments box temporarily disabled*
Report a bug