Top read | 56% Baywatch | Meine peinlichen Eltern

Soorma 2018 Hindi 720p PreDVD Rip x264 [MW]

seeders: 169
leechers: 50
updated:
Added by moviezworldz in Other


strongly advises you to use NordVPN while downloading torrents.
NordVPN is the safest VPN on the market, and the fastest VPN as well.
No IP Log is saved using NordVPN, avoid other VPN providers and choose the safest one.
Click here and buy NordVPN it's on rebates today!
We were able to verify your IP: 46.161.60.20 and country: Spain.
If we can do that, others can too, protect your privacy with NordVPN.
is trying the best for you!


Soorma 2018 Hindi 720p PreDVD Rip x264 [MW] Size: 1.1 GB (1181116006 Bytes)

Description

 

 
 
General
Format : Matroska
Format version : Version 4 / Version 2
File size : 1.07 GiB
Duration : 1 h 54 min
Overall bit rate : 1 334 kb/s

Video
ID : 1
Format : AVC
Format/Info : Advanced Video Codec
Format profile : [email protected] 
Format settings : CABAC / 4 Ref Frames
Format settings, CABAC : Yes
Format settings, RefFrames : 4 frames
Codec ID : V_MPEG4/ISO/AVC
Duration : 1 h 54 min
Bit rate : 1 200 kb/s
Width : 1 280 pixels
Height : 720 pixels
Display aspect ratio : 16:9
Frame rate mode : Constant
Frame rate : 25.000 FPS
Color space : YUV
Chroma subsampling : 4:2:0
Bit depth : 8 bits
Scan type : Progressive
Bits/(Pixel*Frame) : 0.052
Stream size : 989 MiB (90%)
Writing library : x264 core 155 r2901 7d0ff22
Default : Yes
Forced : No

Audio
ID : 2
Format : AAC
Format/Info : Advanced Audio Codec
Format profile : LC
Codec ID : A_AAC-2
Duration : 1 h 54 min
Bit rate : 128 kb/s
Channel(s) : 2 channels
Channel positions : Front: L R
Sampling rate : 48.0 kHz
Frame rate : 46.875 FPS (1024 SPF)
Compression mode : Lossy
Stream size : 105 MiB (10%)
Language : Hindi
Default : Yes
Forced : No
  

Click To Enlarge Image

 
 
 
 
 
 
 

Sharing Widget


Download torrent
Size: 1.1 GB
seeders:169
leechers:50
Soorma 2018 Hindi 720p PreDVD Rip x264 [MW] - (1181116006 Bytes)



To share this torrent use the code below and insert it into comments, status messages, forum posts or your signature.

Torrent: Soorma 2018 Hindi 720p PreDVD Rip x264 [MW]

Trackers

tracker name
udp://tracker.coppersurfer.tk:6969/announce
udp://tracker.pirateparty.gr:6969/announce
udp://tracker.coppersurfer.tk:6969/announce
udp://tracker.leechers-paradise.org:6969/announce
udp://eddie4.nl:6969/announce
udp://tracker.tiny-vps.com:6969/announce
udp://9.rarbg.me:2800/announce
udp://9.rarbg.to:2720/announce
udp://public.popcorn-tracker.org:6969/announce
udp://open.stealth.si:80/announce
udp://tracker.vanitycore.co:6969/announce
udp://tracker.opentrackr.org:1337/announce
udp://bt.firebit.co.uk:6969/announce
udp://shadowshq.yi.org:6969/announce
udp://tracker.zer0day.to:1337/announce
udp://tracker.leechers-paradise.org:6969/announce
udp://coppersurfer.tk:6969/announce
ĀµTorrent compatible trackers list

Locations

name
KickassTorrents
Torrent hash: E0168AAFF7E9EC64E287FCF49EE9F65BDA84323E

strongly advises you to use NordVPN while downloading torrents.
NordVPN is the safest VPN on the market, and the fastest VPN as well.
No IP Log is saved using NordVPN, avoid other VPN providers and choose the safest one.
Click here and buy NordVPN it's on rebates today!
We were able to verify your IP: 46.161.60.20 and country: Spain.
If we can do that, others can too, protect your privacy with NordVPN.
is trying the best for you!

All Comments

*comments box temporarily disabled*
Report a bug