Ghost in the Shell 2 - Innocence | Бэтмен: Начало / Batman Begins (2005) BDRip 720p от Scarabey | D | Fear The Walking Dead Flight 462 Part 1 8-GHoSTCR3W

Poseidon (2006) 1080p Bluray x264 {Dual Audio} [Hindi Org DD 2.0 ...

seeders: 4
leechers: 5
updated:
Added by Hon3yHD in Other
Torrent reliable.


[ LIMITED VPN OFFER ]
strongly advises you to use NordVPN while downloading torrents.
NordVPN is the safest VPN on the market, and the fastest VPN as well.
No IP Log is saved using NordVPN, avoid other VPN providers and choose the safest one.
Click here and buy NordVPN it's on rebates today!
We were able to verify your IP: 185.251.15.212, country: Unknown error type: [8] Undefined variable: city
string 'k.php' (length=5)
int 152
.
If we can do that, others can too, protect your privacy with NordVPN.
is trying the best for you!
[ LIMITED VPN OFFER ]


Description

 

 

 

 
Format : Matroska
Format version : Version 4 / Version 2
File size : 3.85 GiB
Duration : 1 h 38 min
Overall bit rate : 5 607 kb/s
Movie name : Poseidon (2006) 1080p Bluray x264 {Dual Audio} [Hindi Org DD 2.0 English DD 5.1] [email protected] 
Bit rate : 5 000 kb/s
Width : 1 920 pixels
Height : 800 pixels
Display aspect ratio : 2.40:1
Frame rate mode : Constant
Frame rate : 23.976 (24000/1001) FPS
Title : [email protected] 
Language : English
Default : Yes
Forced : No

Audio #1
Format : AC-3
Format/Info : Audio Coding 3
Codec ID : A_AC3
Duration : 1 h 38 min
Bit rate mode : Constant
Bit rate : 224 kb/s
Channel(s) : 2 channels
Channel positions : Front: L R
Sampling rate : 48.0 kHz
Frame rate : 31.250 FPS (1536 SPF)
Bit depth : 16 bits
Compression mode : Lossy
Stream size : 157 MiB (4%)
Title : Hindi Org VCD DD 2.0 @224 kbps By~Hammer~
Language : Hindi
Default : Yes
Forced : Yes

Audio #2
Format : AC-3
Format/Info : Audio Coding 3
Codec ID : A_AC3
Duration : 1 h 38 min
Bit rate mode : Constant
Bit rate : 384 kb/s
Channel(s) : 6 channels
Channel positions : Front: L C R, Side: L R, LFE
Sampling rate : 48.0 kHz
Frame rate : 31.250 FPS (1536 SPF)
Bit depth : 16 bits
Compression mode : Lossy
Stream size : 270 MiB (7%)
Title : Eng Org DD 5.1 @384 kbps By~Hammer~
Language : English
Default : No
Forced : No  

 

 
 
 
 
 

Enjoy & Keep Seeding  


Sharing Widget


Download torrent
Size: 3.8 GB
seeders:4
leechers:5
Poseidon (2006) 1080p Bluray x264 {Dual Audio} [Hindi Org DD 2.0 ... - (4080218931 Bytes)



To share this torrent use the code below and insert it into comments, status messages, forum posts or your signature.

Torrent: Poseidon (2006) 1080p Bluray x264 {Dual Audio} [Hindi Org DD 2.0 ...

Trackers

tracker name
udp://tracker.coppersurfer.tk:6969/announce
udp://tracker.leechers-paradise.org:6969/announce
udp://tracker.pirateparty.gr:6969/announce
udp://tracker.coppersurfer.tk:6969
udp://eddie4.nl:6969/announce
udp://tracker.tiny-vps.com:6969/announce
udp://9.rarbg.me:2710/announce
udp://9.rarbg.to:2710/announce
udp://public.popcorn-tracker.org:6969/announce
udp://open.stealth.si:80/announce
udp://tracker.vanitycore.co:6969/announce
udp://ipv4.tracker.harry.lu:80/announce
udp://tracker.opentrackr.org:1337/announce
udp://bt.firebit.co.uk:6969/announce
udp://tracker.zer0day.to:1337/announce
udp://tracker.leechers-paradise.org:6969/announce
udp://coppersurfer.tk:6969/announce
µTorrent compatible trackers list

Locations

name
KickassTorrents
Torrent hash: 38BA5332A5437E7EC317C535901C5E720C229AF9

[ LIMITED VPN OFFER ]
strongly advises you to use NordVPN while downloading torrents.
NordVPN is the safest VPN on the market, and the fastest VPN as well.
No IP Log is saved using NordVPN, avoid other VPN providers and choose the safest one.
Click here and buy NordVPN it's on rebates today!
We were able to verify your IP: 185.251.15.212 and country: Unknown error type: [8] Undefined variable: city
string 'single.php' (length=10)
int 269
.
If we can do that, others can too, protect your privacy with NordVPN.
is trying the best for you!
[ LIMITED VPN OFFER ]

All Comments

*comments box temporarily disabled*
Report a bug