Kamogawa Shokudou | Игры для других платформ | Yoru no Yatterman

G.I. Joe Retaliation (2013) 1080p 10bit Bluray x265 HEVC [Org BD ...

seeders: 4
leechers: 12
updated:
Added by McuDudeS in Other


strongly advises you to use NordVPN while downloading torrents.
NordVPN is the safest VPN on the market, and the fastest VPN as well.
No IP Log is saved using NordVPN, avoid other VPN providers and choose the safest one.
Click here and buy NordVPN it's on rebates today!
We were able to verify your IP: 188.68.3.56 and country: Czech Republic.
If we can do that, others can too, protect your privacy with NordVPN.
is trying the best for you!


Description

 

 
 

G.I. Joe Retaliation (2013) 1080p 10bit Bluray x265 HEVC [Org BD 5.1 Hindi + AAC 5.1 English] ESubs ~ {RoCK-HD-STAr}  
Org Untouched Bluray DD 5.1 448Kbps Hindi Audio  

 
 
Code: 
General
Complete name :G.I. Joe Retaliation (2013) 1080p 10bit Bluray x265 HEVC [Org BD 5.1 Hindi + AAC 5.1 English] ESubs ~ {RoCK-HD-STAr}.mkv
Format : Matroska
Format version : Version 4 / Version 2
File size : 5.64 GiB
Duration : 2 h 3 min
Overall bit rate : 6 560 kb/s
Movie name : G.I. Joe Retaliation (2013) 1080p 10bit Bluray x265 HEVC [Org BD 5.1 Hindi + AAC 5.1 English] ESubs ~ {RoCK-HD-STAr}---The King Of Entertainment ~ {RoCK-HD-STAr}


Video
ID : 1
Format : HEVC
Format/Info : High Efficiency Video Coding
Format profile : Main [email protected]@Main
Codec ID : V_MPEGH/ISO/HEVC
Duration : 2 h 3 min
Bit rate : 5 653 kb/s
Width : 1 920 pixels
Height : 800 pixels
Display aspect ratio : 2.40:1
Frame rate mode : Constant
Frame rate : 23.976 (24000/1001) FPS
Color space : YUV
Chroma subsampling : 4:2:0
Bit depth : 10 bits
Bits/(Pixel*Frame) : 0.153
Stream size : 4.86 GiB (86%)
Title : {RoCK-HD-STAr}
Default : Yes
Forced : No

Audio #1
ID : 2
Format : AAC
Format/Info : Advanced Audio Codec
Format profile : LC
Codec ID : A_AAC-2
Duration  : 2 h 3 min
Bit rate : 448 kb/s
Channel(s) : 6 channels
Channel positions : Front: L C R, Side: L R, LFE
Sampling rate : 48.0 kHz
Frame rate : 46.875 FPS (1024 SPF)
Compression mode : Lossy
Stream size : 394 MiB (7%)
Title : {RoCK-HD-STAr}
Language : English
Default : Yes
Forced : Yes

Audio #2
ID : 4
Format : AC-3
Format/Info : Audio Coding 3
Codec ID : A_AC3
Duration : 2 h 3 min
Bit rate mode : Constant
Bit rate : 448 kb/s
Channel(s) : 6 channels
Channel positions : Front: L C R, Side: L R, LFE
Sampling rate : 48.0 kHz
Frame rate : 31.250 FPS (1536 SPF)
Bit depth : 16 bits
Compression mode : Lossy
Stream size : 394 MiB (7%)
Title : Hindi DD_5.1 @448kbps ~ {RoCK-HD-STAr}
Language : Hindi
Service kind : Complete Main
Default : No
Forced : No

Text
ID : 3
Format : PGS
Muxing mode : zlib
Codec ID : S_HDMV/PGS
Codec ID/Info : Picture based subtitle format used on BDs/HD-DVDs
Duration : 1 h 52 min
Bit rate : 29.0 kb/s
Count of elements : 2540
Stream size : 23.3 MiB (0%)
Title : {RoCK-HD-STAr}
Language : English
Default : No
Forced : No

Menu
00:00:00.000 : en:Opening Sequence
00:11:31.858 : en:Cobra is Challenged
00:18:28.607 : en:A New, Powerful Contraption
00:23:49.261 : en:Retreat from Battle
00:31:58.125 : en:The Missing Unit
00:37:16.943 : en:The New Recruits
00:46:13.646 : en:Flirtatious Mistake
00:48:16.727 : en:Jail Break
00:54:59.630 : en:The Supreme Ruler
01:00:31.378 : en:The Bad Pods
01:08:14.924 : en:The Renegades
01:14:38.474 : en:The Pod Launch
01:22:21.770 : en:Stop the Cobra Forces
01:26:19.424 : en:Rally the Troops
01:32:55.487 : en:Cobra Gets the B.E.T.
01:43:06.097 : en:Fry the Spores!
01:53:55.579 : en:The End




  

 

 

 
 
 

Sharing Widget


Download torrent
Size: 5.8 GB
seeders:4
leechers:12
G.I. Joe Retaliation (2013) 1080p 10bit Bluray x265 HEVC [Org BD ... - (6227702579 Bytes)



To share this torrent use the code below and insert it into comments, status messages, forum posts or your signature.

Torrent: G.I. Joe Retaliation (2013) 1080p 10bit Bluray x265 HEVC [Org BD ...

Trackers

tracker name
udp://tracker.coppersurfer.tk:6969/announce
udp://tracker.open-internet.nl:6969/announce
udp://exodus.desync.com:6969/announce
udp://tracker.opentrackr.org:1337/announce
udp://tracker.internetwarriors.net:1337/announce
udp://9.rarbg.to:2710/announce
udp://public.popcorn-tracker.org:6969/announce
udp://tracker.vanitycore.co:6969/announce
udp://mgtracker.org:6969/announce
udp://tracker.tiny-vps.com:6969/announce
udp://tracker.cypherpunks.ru:6969/announce
udp://tracker.torrent.eu.org:451/announce
udp://thetracker.org:80/announce
udp://open.stealth.si:80/announce
udp://tracker.zer0day.to:1337/announce
udp://tracker.leechers-paradise.org:6969/announce
udp://coppersurfer.tk:6969/announce
µTorrent compatible trackers list

Locations

name
KickassTorrents
Torrent hash: 5A490CAB012D11F14F0B92589FA729653A0F46E6

strongly advises you to use NordVPN while downloading torrents.
NordVPN is the safest VPN on the market, and the fastest VPN as well.
No IP Log is saved using NordVPN, avoid other VPN providers and choose the safest one.
Click here and buy NordVPN it's on rebates today!
We were able to verify your IP: 188.68.3.56 and country: Czech Republic.
If we can do that, others can too, protect your privacy with NordVPN.
is trying the best for you!

All Comments

*comments box temporarily disabled*
Report a bug