Watch show | Foundations | Son Yorum

Dhadak (2018) Hindi 720p HQ Pre-DVDRip x264 AAC 1.3GB [MovCr]

seeders: 242
leechers: 74
updated:
Added by ictv in Other


strongly advises you to use NordVPN while downloading torrents.
NordVPN is the safest VPN on the market, and the fastest VPN as well.
No IP Log is saved using NordVPN, avoid other VPN providers and choose the safest one.
Click here and buy NordVPN it's on rebates today!
We were able to verify your IP: 185.251.15.55 and country: .
If we can do that, others can too, protect your privacy with NordVPN.
is trying the best for you!


Description

Visit Our Site www.movcr.com  

http://www.imdb.com/title/tt7638344/ 

 

General
Unique ID : 196735869042251010924971258418154059620 (0x9401F33BDFB16CE01E5C91A9B15E3764)
Complete name : [www.MovCr.com] - Dhadak (2018) Hindi 720p HQ Pre-DVDRip x264 AAC 1.3GB [MovCr]\www.MovCr.com - Dhadak (2018) Hindi 720p HQ Pre-DVDRip x264 AAC 1.3GB [MovCr].mkv
Format : Matroska
Format version : Version 4 / Version 2
File size : 1.31 GiB
Duration : 2 h 10 min
Overall bit rate : 1 438 kb/s
Movie name : www.MovCr.com
Encoded date : UTC 2018-07-20 17:12:59
Writing application : mkvmerge v23.0.0 ('The Bride Said No') 64-bit
Writing library : libebml v1.3.6 + libmatroska v1.4.9

Video
ID : 1
Format : AVC
Format/Info : Advanced Video Codec
Format profile : [email protected] 
Format settings : CABAC / 2 Ref Frames
Format settings, CABAC : Yes
Format settings, RefFrames : 2 frames
Codec ID : V_MPEG4/ISO/AVC
Duration : 2 h 10 min
Bit rate : 1 304 kb/s
Width : 1 280 pixels
Height : 544 pixels
Display aspect ratio : 2.35:1
Frame rate mode : Constant
Frame rate : 25.000 FPS
Color space : YUV
Chroma subsampling : 4:2:0
Bit depth : 8 bits
Scan type : Progressive
Bits/(Pixel*Frame) : 0.075
Stream size : 1.19 GiB (91%)
Title : www.MovCr.com
Default : Yes
Forced : No

Audio
ID : 2
Format : AAC
Format/Info : Advanced Audio Codec
Format profile : LC
Codec ID : A_AAC-2
Duration : 2 h 10 min
Bit rate : 132 kb/s
Channel(s) : 2 channels
Channel positions : Front: L R
Sampling rate : 48.0 kHz
Frame rate : 46.875 FPS (1024 SPF)
Compression mode : Lossy
Stream size : 122 MiB (9%)
Default : Yes
Forced : No

  

 
 
 
 
 
 
 
 

Sharing Widget


Download torrent
Size: 1.3 GB
seeders:242
leechers:74
Dhadak (2018) Hindi 720p HQ Pre-DVDRip x264 AAC 1.3GB [MovCr] - (1395864371 Bytes)



To share this torrent use the code below and insert it into comments, status messages, forum posts or your signature.

Torrent: Dhadak (2018) Hindi 720p HQ Pre-DVDRip x264 AAC 1.3GB [MovCr]

Trackers

tracker name
udp://tracker.coppersurfer.tk:6969/announce
udp://tracker.opentrackr.org:1337/announce
udp://tracker.leechers-paradise.org:6969/announce
udp://9.rarbg.to:2800/announce
udp://9.rarbg.to:2800/announce
udp://eddie4.nl:6969/announce
udp://9.rarbg.to:2800/announce
udp://9.rarbg.to:2800/announce
udp://tracker.doko.moe:6969/announce
udp://tracker.doko.moe:6969/announce
udp://thetracker.org:80/announce
udp://thetracker.org:80/announce
udp://bt.xxx-tracker.com:2710/announce
udp://bt.xxx-tracker.com:2710/announce
udp://tracker.zer0day.to:1337/announce
udp://tracker.leechers-paradise.org:6969/announce
udp://coppersurfer.tk:6969/announce
ĀµTorrent compatible trackers list

Locations

name
KickassTorrents
Torrent hash: D9FFEFC0E8E156DDFE1780C5ABE0D0DC14F1D566

strongly advises you to use NordVPN while downloading torrents.
NordVPN is the safest VPN on the market, and the fastest VPN as well.
No IP Log is saved using NordVPN, avoid other VPN providers and choose the safest one.
Click here and buy NordVPN it's on rebates today!
We were able to verify your IP: 185.251.15.55 and country: .
If we can do that, others can too, protect your privacy with NordVPN.
is trying the best for you!

All Comments

*comments box temporarily disabled*
Report a bug