George Ogilvie | Wind River | Изображения

Deadpool 2 (2018) English 720p HC HDRip x264 1GB - Team TR

seeders: 1206
leechers: 378
updated:
Added by RockerS in Other


strongly advises you to use NordVPN while downloading torrents.
NordVPN is the safest VPN on the market, and the fastest VPN as well.
No IP Log is saved using NordVPN, avoid other VPN providers and choose the safest one.
Click here and buy NordVPN it's on rebates today!
We were able to verify your IP: 5.189.205.210 and country: France.
If we can do that, others can too, protect your privacy with NordVPN.
is trying the best for you!


Description

Deadpool 2 (2018) English 720p HC HDRip x264 1GB - Team TR  
 

SAMPLE  

SCREESNHOTS
 


IMDB : http://www.imdb.com/title/tt5463162/ 

Trailer : http://www.youtube.com/watch?v=D86RtevtfrA 

Source : NON (Thanks)
Encoded By : TamilRockers

Note : Stutters on some places,Bcz the source itself has low fps :(

Media Info  
General
Format                                   : Matroska
Format version                           : Version 4 / Version 2
File size                                : 1 005 MiB
Duration                                 : 1 h 59 min
Overall bit rate                         : 1 181 kb/s


Video
ID                                       : 1
Format                                   : AVC
Format/Info                              : Advanced Video Codec
Format profile                           : [email protected] 
Format settings                          : CABAC / 4 Ref Frames
Format settings, CABAC                   : Yes
Format settings, RefFrames               : 4 frames
Codec ID                                 : V_MPEG4/ISO/AVC
Duration                                 : 1 h 59 min
Bit rate                                 : 1 091 kb/s
Width                                    : 1 280 pixels
Height                                   : 564 pixels
Display aspect ratio                     : 2.25:1
Frame rate mode                          : Variable
Frame rate                               : 14.412 FPS
Color space                              : YUV
Chroma subsampling                       : 4:2:0
Bit depth                                : 8 bits
Scan type                                : Progressive
Bits/(Pixel*Frame)                       : 0.105
Stream size                              : 923 MiB (92%)
Language                                 : English
Default                                  : Yes
Forced                                   : No
Color range                              : Limited


Audio
ID                                       : 2
Format                                   : AAC
Format/Info                              : Advanced Audio Codec
Format profile                           : HE-AAC / LC
Format settings                          : NBC
Codec ID                                 : A_AAC-5
Duration                                 : 1 h 59 min
Bit rate                                 : 96.0 kb/s
Channel(s)                               : 2 channels
Channel positions                        : Front: L R
Sampling rate                            : 44.1 kHz / 22.05 kHz
Frame rate                               : 21.533 FPS (1024 SPF)
Compression mode                         : Lossy
Stream size                              : 81.7 MiB (8%)
Language                                 : English
Default                                  : Yes
Forced                                   : No

Subtitles : Korean (Hard Coded) 

Sharing Widget


Download torrent
Size: 1.005.4 MB
seeders:1206
leechers:378
Deadpool 2 (2018) English 720p HC HDRip x264 1GB - Team TR - (1053818 Bytes)



To share this torrent use the code below and insert it into comments, status messages, forum posts or your signature.

Torrent: Deadpool 2 (2018) English 720p HC HDRip x264 1GB - Team TR

Trackers

tracker name
udp://tracker.openbittorrent.com:80/announce
udp://explodie.org:6969/announce
udp://zer0day.ch:1337/announce
udp://tracker.leechers-paradise.org:6969/announce
udp://tracker.coppersurfer.tk:6969/announce
udp://tracker.opentrackr.org:1337/announce
udp://tracker.zer0day.to:1337/announce
udp://tracker.leechers-paradise.org:6969/announce
udp://coppersurfer.tk:6969/announce
µTorrent compatible trackers list

Locations

name
KickassTorrents
Torrent hash: FD32C1C09DAE73E4C80B8573681C1F0A106A030F

strongly advises you to use NordVPN while downloading torrents.
NordVPN is the safest VPN on the market, and the fastest VPN as well.
No IP Log is saved using NordVPN, avoid other VPN providers and choose the safest one.
Click here and buy NordVPN it's on rebates today!
We were able to verify your IP: 5.189.205.210 and country: France.
If we can do that, others can too, protect your privacy with NordVPN.
is trying the best for you!

All Comments

*comments box temporarily disabled*
Report a bug